Jump to content
Clubplanet Nightlife Community
Sign in to follow this  
njdionysus

PVD Rosenmontagsrave ID

Recommended Posts

TITLE "live @ rosenmontagsrave 11.02.02."

PERFORMER "paul van dyk"

TRACK 01 AUDIO

TITLE "braintool"

PERFORMER "01. junk project"

INDEX 01 00:00:00

TRACK 02 AUDIO

TITLE "the saga [original mix]"

PERFORMER "02. trancesetters"

INDEX 01 06:24:46

TRACK 03 AUDIO

TITLE "punk"

PERFORMER "03. funk einsatz"

INDEX 01 12:12:35

TRACK 04 AUDIO

TITLE "k [original mix]"

PERFORMER "04. alvin dorset & nick petrel"

INDEX 01 18:21:74

TRACK 05 AUDIO

TITLE "everywhere i go [paul van dyk rework]"

PERFORMER "05. the space brothers"

INDEX 01 22:11:67

TRACK 06 AUDIO

TITLE "club attack [paul van dyk remix]"

PERFORMER "06. solid sleep"

INDEX 01 27:45:28

TRACK 07 AUDIO

TITLE "never fuck [paul van dyk's late night remix]"

PERFORMER "07. romanthony"

INDEX 01 34:13:17

TRACK 08 AUDIO

TITLE "in the beginning [ferry corsten remix]"

PERFORMER "08. roger goode"

INDEX 01 38:50:19

TRACK 09 AUDIO

TITLE "take control [original dub mix]"

PERFORMER "09. avanza"

INDEX 01 44:19:52

TRACK 10 AUDIO

TITLE "desire [4 strings remix]"

PERFORMER "10. blank & jones"

INDEX 01 48:43:23

TRACK 11 AUDIO

TITLE "deep sea [martin eyerer remix]"

PERFORMER "11. aquanuts"

INDEX 01 54:38:55

TRACK 12 AUDIO

TITLE "keep on rockin'"

PERFORMER "12. roland klinkenberg & danny bakker"

INDEX 01 59:57:70

TRACK 13 AUDIO

TITLE "la la land [thomas krome remix]"

PERFORMER "13. green velvet"

INDEX 01 63:41:44

TRACK 14 AUDIO

TITLE "sonic empire [jan driver remix]"

PERFORMER "14. members of mayday"

INDEX 01 66:44:53

TRACK 15 AUDIO

TITLE "china lounge"

PERFORMER "15. starsplash"

INDEX 01 70:35:49

TRACK 16 AUDIO

TITLE "perspectives [expansion remix]"

PERFORMER "16. bill hamel"

INDEX 01 74:56:10

TRACK 17 AUDIO

TITLE "unite [airwave dub]"

PERFORMER "17. ayumi hamasaki"

INDEX 01 79:22:63

TRACK 18 AUDIO

TITLE "flash [original mix]"

PERFORMER "18. bk & nick sentience"

INDEX 01 84:14:40

TRACK 19 AUDIO

TITLE "suzann"

PERFORMER "19. paul van dyk vs. city"

INDEX 01 90:55:02

TRACK 20 AUDIO

TITLE "m [above & beyond's typhoon dub]"

PERFORMER "20. ayumi hamasaki"

INDEX 01 97:32:15

TRACK 21 AUDIO

TITLE "catch [hiver & hammer remix]"

PERFORMER "21. kosheen"

INDEX 01 100:38:02

TRACK 22 AUDIO

TITLE "starchildren [paul van dyk rework]"

PERFORMER "22. guardians of the earth"

INDEX 01 106:36:53

TRACK 23 AUDIO

TITLE "into the night [original mix]"

PERFORMER "23. 4 strings"

INDEX 01 112:06:49

TRACK 24 AUDIO

TITLE "dreamland"

PERFORMER "24. nu nrg"

INDEX 01 115:37:54

after posting this cue, i just noticed, that song isn't id'ed. woops sorry.

Share this post


Link to post
Share on other sites

Create an account or sign in to comment

You need to be a member in order to leave a comment

Create an account

Sign up for a new account in our community. It's easy!

Register a new account

Sign in

Already have an account? Sign in here.

Sign In Now

Sign in to follow this  

×