Jump to content
Clubplanet Nightlife Community
Sign in to follow this  
Guest Greg M

Breaks mix

Recommended Posts

Guest Greg M

Just done a new breaks mix, hope you enjoy it :)

Tracklisting -

Plump djs - You will remember my name

Baitercell & Schumacher - Lay it down (DJ Icey's dub)

Alter ego v Stanton Warriors - Rocker

Meat Katie - All I need (Dylan Ryhmes mix)

SCAM - Acid love

Krafty kuts - Where's the noise

Plump DJs - Soul Vibrates

Rennie Pilgrim - Gladiator the sequal (Rennie's gonzo mix)

Metal fusion - Killing in the name

Rage against the machine - Killing in the name

Right click here -

http://www.clublost.com/GregMatthewsApril05.mp3

Cue file looks like -

TRACK 01 AUDIO

INDEX 01 00:00:00

TRACK 02 AUDIO

INDEX 01 06:24:00

TRACK 03 AUDIO

INDEX 01 11:13:00

TRACK 04 AUDIO

INDEX 01 16:12:00

TRACK 05 AUDIO

INDEX 01 22:01:00

TRACK 06 AUDIO

INDEX 01 28:01:00

TRACK 07 AUDIO

INDEX 01 33:18:00

TRACK 08 AUDIO

INDEX 01 39:08:00

TRACK 09 AUDIO

INDEX 01 45:01:00

TRACK 010 AUDIO

INDEX 01 47:47:00

;D

Share this post


Link to post
Share on other sites

Create an account or sign in to comment

You need to be a member in order to leave a comment

Create an account

Sign up for a new account in our community. It's easy!

Register a new account

Sign in

Already have an account? Sign in here.

Sign In Now

Sign in to follow this  

×