Jump to content
Clubplanet Nightlife Community
Sign in to follow this  
x-t-c

Cue file HELP!!!

Recommended Posts

CDRWIN does this very easily. Heres what to do. Turn the mix into a .wav file. Find all the times you want the track to have a cue point [a cue point is when the track switches from one to another ie 23min:14secs:25hundreth of a sec] I use mp3trackmaker to do this. It uses winamp to play the .wav and allows you to pull out the track times. Finally you must write a cue sheet to tell your burner progrm where the file is on your harddrive and at what times to set cue points. .

Here is a basic cue sheet...

FILE "C:\WAVS\album.wav" WAVE

TRACK 01 AUDIO

INDEX 01 00:00:00

TRACK 02 AUDIO

INDEX 01 04:26:21

TRACK 03 AUDIO

INDEX 01 09:19:74

TRACK 04 AUDIO

INDEX 01 13:55:43

TRACK 05 AUDIO

INDEX 01 19:38:74

TRACK 06 AUDIO

INDEX 01 23:49:58

TRACK 07 AUDIO

INDEX 01 30:21:46

TRACK 08 AUDIO

INDEX 01 34:40:48

TRACK 09 AUDIO

INDEX 01 39:52:12

TRACK 10 AUDIO

INDEX 01 45:44:12

TRACK 11 AUDIO

INDEX 01 52:16:21

TRACK 12 AUDIO

INDEX 01 57:24:28

TRACK 13 AUDIO

INDEX 01 61:36:29

i've ran into a lot of problems setting this program up, but now it works like a charm. Don't forget cue sheets are read in 75 second frames meaning when using times xx:yy:zz, zz cannot be over 75 or it will be and invalid command. Just a small hint that gave me agida for awhile. PM me if you need more help

Share this post


Link to post
Share on other sites

Create an account or sign in to comment

You need to be a member in order to leave a comment

Create an account

Sign up for a new account in our community. It's easy!

Register a new account

Sign in

Already have an account? Sign in here.

Sign In Now

Sign in to follow this  

×